extratorrent - A Fan Made Alternative Login   |   Register
Important Information
Registrations are open now
-------------------------------------

Please click here to register with Extratorrent2 to recieve latest updates, add bookmarks and to post comments.

Friends
Friends

1) ProxyFix

Extratorrent2 > Categories > Movies > 18+ Minutes To Midnight 2018 UNCENSORED Movies HDRip x264 5.1 with Sample ☻rDX☻ torrent


Browse Movies torrents

18+ Minutes To Midnight 2018 UNCENSORED Movies HDRip x264 5.1 with Sample ☻rDX☻ torrent


Minutes to Midnight (2018)
Name: Minutes to Midnight
Released Year: 2018
Runtime: 91 mins
Gener: Horror
Director: Christopher Ray
Country: USA
IMDB Rating: N/A
Plot: On the cusp of New Year's Eve, seven friends and a mysterious backpacker converge at a desolate ski lodge in the mountains when they are systematically hunted down by ruthless masked men with a cryptic agenda.

Download torrent: Download 18+ Minutes To Midnight 2018 UNCENSORED Movies HDRip x264 5.1 with Sample ☻rDX☻ torrent Magnet link Bookmark Torrent: 18+ Minutes To Midnight 2018 UNCENSORED Movies HDRip x264 5.1 with Sample ☻rDX☻   18+ Minutes To Midnight 2018 UNCENSORED Movies HDRip x264 5.1 with Sample ☻rDX☻ torrent
Info hash: 196BABE2C448CE52800B56354CECA180665CF8CB
Category: Categories > Movies
Trackers:
View all torrent trackers >
Health:
 seeds: 182 ,  leechers: 85 |  Update >
Torrent language: English English
Total Size: 848.3 MB
Files List:
2    View torrent files >
Uploader:
nehalpuja
Torrent added: July 4, 2018, 10:57 am
IMDB: http://www.imdb.com/title/tt3079568
Users rating: ---, not rated. please login to rate.

Download 18+ Minutes To Midnight 2018 UNCENSORED Movies HDRip x264 5.1 with Sample ☻rDX☻ torrent



Torrent Description

18+ Minutes To Midnight 2018 UNCENSORED Movies HDRip x264 5.1 with Sample ☻rDX☻
===============================================================================================

SCREEN SHOTS:



or

http://iphonehosting.eu/2018/7/iphone8/1.html

File size : 839 MiB
Duration : 1 h 31 min
Overall bit rate mode : Constant
Overall bit rate : 1 287 kb/s
Movie name : 18+ Minutes To Midnight 2018 UNCENSORED Movies HDRip x264 5.1 ☻rDX☻

Video
ID : 2
Format : AVC
Format/Info : Advanced Video Codec
Format profile :
Format settings, CABAC : Yes
Format settings, ReFrames : 2 frames
Format settings, GOP : M=1, N=12
Codec ID : V_MPEG4/ISO/AVC
Duration : 1 h 31 min
Bit rate mode : Constant
Bit rate : 904 kb/s
Width : 720 pixels
Height : 400 pixels
Display aspect ratio : 16:9
Frame rate mode : Constant
Frame rate : 23.976 FPS
Color space : YUV
Chroma subsampling : 4:2:0
Bit depth : 8 bits
Scan type : Progressive
Bits/(Pixel*Frame) : 0.131
Stream size : 572 MiB (68%)
Title : ☻rDX☻
Default : Yes
Forced : No

Audio
ID : 1
Format : AC-3
Format/Info : Audio Coding 3
Mode extension : CM (complete main)
Format settings, Endianness : Big
Codec ID : A_AC3
Duration : 1 h 31 min
Bit rate mode : Constant
Bit rate : 384 kb/s
Channel(s) : 6 channels
Channel positions : Front: L C R, Side: L R, LFE
Sampling rate : 48.0 kHz
Frame rate : 31.250 FPS (1536 spf)
Bit depth : 16 bits
Compression mode : Lossy
Stream size : 250 MiB (30%)
Title : ☻rDX☻
Default : Yes
Forced : No



IMDB : http://www.imdb.com/title/tt3079568


Download 18+ Minutes To Midnight 2018 UNCENSORED Movies HDRip x264 5.1 with Sample ☻rDX☻ torrent


Related Torrents


Comments   (please login to add your comment!)

devyn cole pass to cheat     crowded     feed     livingstone     oro     18 bengali     altitude 2017 x265     black panther 10bit     massage cherry kiss     cira nerri     francesca legalporno     new year eve     anal vision 12     miss brat perversions     basha     1 lucky fuck     brazzers threesomes     yuria sonoda     schoolgirls trip     bed pole     sweet sinner voyeur     1993     i don     uk top 40     


Home - Browse Torrents

Made with love by an Extratorrent Fan!