extratorrent - A Fan Made Alternative Login   |   Register
Important Information
Registrations are open now
-------------------------------------

Please click here to register with Extratorrent2 to recieve latest updates, add bookmarks and to post comments.

Friends
Friends

1) ProxyFix

Extratorrent2 > Categories > TV > George Benjamin - Lessons in Love and Violence (1280x720p HD, 50fps, soft Eng subs) torrent


Browse TV torrents

George Benjamin - Lessons in Love and Violence (1280x720p HD, 50fps, soft Eng subs) torrent


Download torrent: Download George Benjamin - Lessons in Love and Violence (1280x720p HD, 50fps, soft Eng subs) torrent Magnet link Bookmark Torrent: George Benjamin - Lessons in Love and Violence (1280x720p HD, 50fps, soft Eng subs)   George Benjamin - Lessons in Love and Violence (1280x720p HD, 50fps, soft Eng subs) torrent
Info hash: 7188929242752BD1A15EDDBECF753516ED3732FD
Category: Categories > TV
Trackers:
View all torrent trackers >
Health:
 seeds: 1 ,  leechers: 1 |  Update >
Torrent language: English English
Total Size: 3.2 GB
Files List:
7    View torrent files >
Uploader:
ElsonRoa
Torrent added: October 23, 2018, 4:39 am
Users rating: ---, not rated. please login to rate.

Download George Benjamin - Lessons in Love and Violence (1280x720p HD, 50fps, soft Eng subs) torrent



Torrent Description

George Benjamin - Lessons in Love and Violence (1280x720p HD, 50fps, soft Eng subs)

Sir George Benjamin conducts the world premiere of his darkly dramatic new opera based on the life of Edward II - a major event in contemporary music with an internationally renowned cast, Lessons in Love and Violence is the latest collaboration between composer George Benjamin and playwright Martin Crimp. Their previous work includes the large-scale opera Written on Skin - which has since become the most performed new opera of the 21st century. Director Katie Mitchell and designer Vicki Mortimer complete the creative team.

King Edward II's relationship with Piers Gaveston upsets the personal life of court and the political wellbeing of the country. When the controlling military leader Mortimer joins forces with Queen Isabel, the results are deadly for Gaveston and Edward.

The lessons learned by the characters of this new opera are harsh ones, following a gripping trajectory from warmth and indulgence towards calculating, cold severity.

First broadcast: 21 October
Duration: 90 minutes

Torrent dead? Request reseed at demonoid.pw, 1337x.to or katcr.co - or ask at



Media info:-
General
Format : MPEG-4
Format profile : Base Media
Codec ID : isom (isom/iso2/avc1/mp41)
File size : 3.16 GiB
Duration : 1h 31mn
Overall bit rate mode : Variable
Overall bit rate : 4 929 Kbps
Writing application : Lavf57.83.100

Presented by Clemency Burton-Hill.

Video
ID : 1
Format : AVC
Format/Info : Advanced Video Codec
Format profile :
Format settings, CABAC : Yes
Format settings, ReFrames : 4 frames
Codec ID : avc1
Codec ID/Info : Advanced Video Coding
Duration : 1h 31mn
Bit rate : 4 604 Kbps
Width : 1 280 pixels
Height : 720 pixels
Display aspect ratio : 16:9
Frame rate mode : Constant
Frame rate : 50.000 fps
Color space : YUV
Chroma subsampling : 4:2:0
Bit depth : 8 bits
Scan type : Progressive
Bits/(Pixel*Frame) : 0.100
Stream size : 2.95 GiB (93%)
Encoded date : UTC 1904-01-01 00:00:00
Tagged date : UTC 1904-01-01 00:00:00
Color range : Limited
Color primaries : BT.709
Transfer characteristics : BT.709
Matrix coefficients : BT.709

Audio
ID : 2
Format : AAC
Format/Info : Advanced Audio Codec
Format profile : LC
Codec ID : 40
Duration : 1h 31mn
Bit rate mode : Variable
Bit rate : 317 Kbps
Maximum bit rate : 321 Kbps
Channel(s) : 2 channels
Channel positions : Front: L R
Sampling rate : 48.0 KHz
Frame rate : 46.875 fps (1024 spf)
Compression mode : Lossy
Stream size : 208 MiB (6%)
Language : English


Download George Benjamin - Lessons in Love and Violence (1280x720p HD, 50fps, soft Eng subs) torrent




Comments   (please login to add your comment!)

encule     sara jay     av debut     uss     development     ufc prelims     big butt slutz     s m     ivy winter     hindi     the o     bling     mommy     friday     shingeki no kyojin x265     heist     big tit superstars     asian bang     chick     auto     041216 135     wrc ps3     1on4     hindi dts hevc     


Home - Browse Torrents

Made with love by an Extratorrent Fan!